Notifications
Clear all

[Stängt] FIX_20201222

Sida 1 / 2

uman231
(@uman231)
Support & Programmerare Admin
Blev medlem: 4 år sedan
Inlägg: 1483
Topic starter  

Problem som rör Fix_20201222 tar vi här

Glöm inte att följa mallen för rapportering.

Alla kända fel med tv4play, och svtplay skall nu vara lösta.

https://www.uwtd.me/filer/


Martin24 gillade
Topic Tags
Peter
(@peter)
Nybörjare Registered
Blev medlem: 2 år sedan
Inlägg: 22
 

Umans: "Alla kända fel med tv4play, och svtplay skall nu vara lösta."

Nja, problemet som jag nämnde igår kväll är inte löst, men det var nog inte meningen heller. Jag vill inte störa i julfriden.

https://www.uwtd.me/postid/5904/


uman231
(@uman231)
Support & Programmerare Admin
Blev medlem: 4 år sedan
Inlägg: 1483
Topic starter  

@peter

Vad använder du för länk?


herodes
(@herodes)
Nybörjare Registered
Blev medlem: 2 år sedan
Inlägg: 30
 

jag får numera ett gammalt senaste ändrat datum  (november) på videofilen. borde jag inte få dagens datum?


uman231
(@uman231)
Support & Programmerare Admin
Blev medlem: 4 år sedan
Inlägg: 1483
Topic starter  

@herodes

länk?


herodes
(@herodes)
Nybörjare Registered
Blev medlem: 2 år sedan
Inlägg: 30

uman231
(@uman231)
Support & Programmerare Admin
Blev medlem: 4 år sedan
Inlägg: 1483
Topic starter  

@herodes

Det beror på när tv4 skapade filen hos sig...


Tjoflojt
(@tjoflojt)
Nybörjare Registered
Blev medlem: 2 år sedan
Inlägg: 49
 

Får fortfarande inte SVT_list att fungera trots fixen. Var inte den med i uppdateringen?


uman231
(@uman231)
Support & Programmerare Admin
Blev medlem: 4 år sedan
Inlägg: 1483
Topic starter  

@tjoflojt

Nej den kommer kanske med nästa mapp... Låg prio på den.. Speciellt nu under jul... Ligger på ca 200 timmar jobb och de lite drygt 30 timmar som jag hade till familjen väger mer än ett program.


dumburken
(@dumburken)
Nykomling Registered
Blev medlem: 3 år sedan
Inlägg: 6
 

Jag har flera ggr försökt att ladda ner "I hetaste laget" från svtplay. Nerladdningen i sig går bra, men ffmpeg efteråt får något problem:

 

INFO: Selected to download hls, bitrate: 3635
INFO: Outfile: C:\Users\rolan\Desktop\Current\rec/I hetaste laget.audio.ts
[1822/1822][================================================================================] ETA: 0:00:00
INFO: Outfile: C:\Users\rolan\Desktop\Current\rec/I hetaste laget.ts
[1822/1822][================================================================================] ETA: 0:00:00
INFO: Merge audio and video into C:\Users\rolan\Desktop\Current\rec/I hetaste laget.ts
ERROR: Something went wrong: ffmpeg version 2020-10-21-git-289e964873-full_build-www.gyan.dev Copyright (c) 2000-2020 the FFmpeg developers
built with gcc 10.2.0 (Rev3, Built by MSYS2 project)
configuration: --enable-gpl --enable-version3 --enable-static --disable-w32threads --disable-autodetect --enable-fontconfig --enable-iconv --enable-gnutls --enable-libxml2 --enable-gmp --enable-lzma --enable-libsnappy --enable-zlib --enable-libsrt --enable-libssh --enable-libzmq --enable-avisynth --enable-libbluray --enable-libcaca --enable-sdl2 --enable-libdav1d --enable-libzvbi --enable-librav1e --enable-libsvtav1 --enable-libwebp --enable-libx264 --enable-libx265 --enable-libxvid --enable-libaom --enable-libopenjpeg --enable-libvpx --enable-libass --enable-frei0r --enable-libfreetype --enable-libfribidi --enable-libvidstab --enable-libvmaf --enable-libzimg --enable-amf --enable-cuda-llvm --enable-cuvid --enable-ffnvcodec --enable-nvdec --enable-nvenc --enable-d3d11va --enable-dxva2 --enable-libmfx --enable-libglslang --enable-vulkan --enable-libcdio --enable-libgme --enable-libmodplug --enable-libopenmpt --enable-libopencore-amrwb --enable-libmp3lame --enable-libshine --enable-libtheora --enable-libtwolame --enable-libvo-amrwbenc --enable-libilbc --enable-libgsm --enable-libopencore-amrnb --enable-libopus --enable-libspeex --enable-libvorbis --enable-ladspa --enable-libbs2b --enable-libflite --enable-libmysofa --enable-librubberband --enable-libsoxr --enable-chromaprint
libavutil 56. 60.100 / 56. 60.100
libavcodec 58.111.101 / 58.111.101
libavformat 58. 62.100 / 58. 62.100
libavdevice 58. 11.102 / 58. 11.102
libavfilter 7. 88.100 / 7. 88.100
libswscale 5. 8.100 / 5. 8.100
libswresample 3. 8.100 / 3. 8.100
libpostproc 55. 8.100 / 55. 8.100
Input #0, mpegts, from 'C:\Users\rolan\Desktop\Current\rec/I hetaste laget.ts':
Duration: 01:56:35.16, start: 0.100000, bitrate: 3187 kb/s
Stream #0:0[0x50]: Video: h264 (High), yuv420p(progressive), 1920x1080 [SAR 1:1 DAR 16:9], 25 fps, 25 tbr, 90k tbn, 50 tbc
C:\Users\rolan\Desktop\Current\rec/I hetaste laget.audio.ts: Invalid data found when processing input
INFO: Muxing C:\Users\rolan\Desktop\Current\rec/I hetaste laget.ts into C:\Users\rolan\Desktop\Current\rec/I hetaste laget.mp4
Traceback (most recent call last):
File "C:\uwtd\lib\runpy.py", line 193, in _run_module_as_main
"__main__", mod_spec)
File "C:\uwtd\lib\runpy.py", line 85, in _run_code
exec(code, run_globals)
File "svtplay-dl\__main__.py", line 20, in <module>
File "svtplay-dl\svtplay_dl\__init__.py", line 69, in main
File "svtplay-dl\svtplay_dl\utils\getmedia.py", line 61, in get_media
File "svtplay-dl\svtplay_dl\utils\getmedia.py", line 230, in get_one_media
File "svtplay-dl\svtplay_dl\postprocess\__init__.py", line 57, in remux
TypeError: argument of type 'NoneType' is not iterable

Done downloading and converting

 

 

SAMMANFOGAR denna tråd med aktuell fix tråd.. (FIX_20201222 )


uman231
(@uman231)
Support & Programmerare Admin
Blev medlem: 4 år sedan
Inlägg: 1483
Topic starter  
Postad av: @dumburken

Jag har flera ggr försökt att ladda ner "I hetaste laget" från svtplay. Nerladdningen i sig går bra, men ffmpeg efteråt får något problem:

 

INFO: Selected to download hls, bitrate: 3635
INFO: Outfile: C:\Users\rolan\Desktop\Current\rec/I hetaste laget.audio.ts
[1822/1822][================================================================================] ETA: 0:00:00
INFO: Outfile: C:\Users\rolan\Desktop\Current\rec/I hetaste laget.ts
[1822/1822][================================================================================] ETA: 0:00:00
INFO: Merge audio and video into C:\Users\rolan\Desktop\Current\rec/I hetaste laget.ts
ERROR: Something went wrong: ffmpeg version 2020-10-21-git-289e964873-full_build-www.gyan.dev Copyright (c) 2000-2020 the FFmpeg developers
built with gcc 10.2.0 (Rev3, Built by MSYS2 project)
configuration: --enable-gpl --enable-version3 --enable-static --disable-w32threads --disable-autodetect --enable-fontconfig --enable-iconv --enable-gnutls --enable-libxml2 --enable-gmp --enable-lzma --enable-libsnappy --enable-zlib --enable-libsrt --enable-libssh --enable-libzmq --enable-avisynth --enable-libbluray --enable-libcaca --enable-sdl2 --enable-libdav1d --enable-libzvbi --enable-librav1e --enable-libsvtav1 --enable-libwebp --enable-libx264 --enable-libx265 --enable-libxvid --enable-libaom --enable-libopenjpeg --enable-libvpx --enable-libass --enable-frei0r --enable-libfreetype --enable-libfribidi --enable-libvidstab --enable-libvmaf --enable-libzimg --enable-amf --enable-cuda-llvm --enable-cuvid --enable-ffnvcodec --enable-nvdec --enable-nvenc --enable-d3d11va --enable-dxva2 --enable-libmfx --enable-libglslang --enable-vulkan --enable-libcdio --enable-libgme --enable-libmodplug --enable-libopenmpt --enable-libopencore-amrwb --enable-libmp3lame --enable-libshine --enable-libtheora --enable-libtwolame --enable-libvo-amrwbenc --enable-libilbc --enable-libgsm --enable-libopencore-amrnb --enable-libopus --enable-libspeex --enable-libvorbis --enable-ladspa --enable-libbs2b --enable-libflite --enable-libmysofa --enable-librubberband --enable-libsoxr --enable-chromaprint
libavutil 56. 60.100 / 56. 60.100
libavcodec 58.111.101 / 58.111.101
libavformat 58. 62.100 / 58. 62.100
libavdevice 58. 11.102 / 58. 11.102
libavfilter 7. 88.100 / 7. 88.100
libswscale 5. 8.100 / 5. 8.100
libswresample 3. 8.100 / 3. 8.100
libpostproc 55. 8.100 / 55. 8.100
Input #0, mpegts, from 'C:\Users\rolan\Desktop\Current\rec/I hetaste laget.ts':
Duration: 01:56:35.16, start: 0.100000, bitrate: 3187 kb/s
Stream #0:0[0x50]: Video: h264 (High), yuv420p(progressive), 1920x1080 [SAR 1:1 DAR 16:9], 25 fps, 25 tbr, 90k tbn, 50 tbc
C:\Users\rolan\Desktop\Current\rec/I hetaste laget.audio.ts: Invalid data found when processing input
INFO: Muxing C:\Users\rolan\Desktop\Current\rec/I hetaste laget.ts into C:\Users\rolan\Desktop\Current\rec/I hetaste laget.mp4
Traceback (most recent call last):
File "C:\uwtd\lib\runpy.py", line 193, in _run_module_as_main
"__main__", mod_spec)
File "C:\uwtd\lib\runpy.py", line 85, in _run_code
exec(code, run_globals)
File "svtplay-dl\__main__.py", line 20, in <module>
File "svtplay-dl\svtplay_dl\__init__.py", line 69, in main
File "svtplay-dl\svtplay_dl\utils\getmedia.py", line 61, in get_media
File "svtplay-dl\svtplay_dl\utils\getmedia.py", line 230, in get_one_media
File "svtplay-dl\svtplay_dl\postprocess\__init__.py", line 57, in remux
TypeError: argument of type 'NoneType' is not iterable

Done downloading and converting

 

Kan du kolla vilken version du har? Hos mig rullade allt som det skulle..

Enklast är att skriva:

 

--v

 

i rutan för url och lämna annat tomt.. Då kommer info om version på uwtd och ffmpeg.. 🙂

 


Martin24
(@martin24)
Trovärdig Medlem VIP
Blev medlem: 3 år sedan
Inlägg: 294
 

Jag testade och får exakt samma felmeddelande som @dumburken

När jag skriver --v får jag:

UWTD 2.5.5.2

ffmpeg version 2020-10-21-git-289e964873-full_build-www.gyan.dev Copyright (c) 2
000-2020 the FFmpeg developers
built with gcc 10.2.0 (Rev3, Built by MSYS2 project)
configuration: --enable-gpl --enable-version3 --enable-static --disable-w32threa
ds --disable-autodetect --enable-fontconfig --enable-iconv --enable-gnutls --ena
ble-libxml2 --enable-gmp --enable-lzma --enable-libsnappy --enable-zlib --enable
-libsrt --enable-libssh --enable-libzmq --enable-avisynth --enable-libbluray --e
nable-libcaca --enable-sdl2 --enable-libdav1d --enable-libzvbi --enable-librav1e
--enable-libsvtav1 --enable-libwebp --enable-libx264 --enable-libx265 --enable-
libxvid --enable-libaom --enable-libopenjpeg --enable-libvpx --enable-libass --e
nable-frei0r --enable-libfreetype --enable-libfribidi --enable-libvidstab --enab
le-libvmaf --enable-libzimg --enable-amf --enable-cuda-llvm --enable-cuvid --ena
ble-ffnvcodec --enable-nvdec --enable-nvenc --enable-d3d11va --enable-dxva2 --en
able-libmfx --enable-libglslang --enable-vulkan --enable-libcdio --enable-libgme
--enable-libmodplug --enable-libopenmpt --enable-libopencore-amrwb --enable-lib
mp3lame --enable-libshine --enable-libtheora --enable-libtwolame --enable-libvo-
amrwbenc --enable-libilbc --enable-libgsm --enable-libopencore-amrnb --enable-li
bopus --enable-libspeex --enable-libvorbis --enable-ladspa --enable-libbs2b --en
able-libflite --enable-libmysofa --enable-librubberband --enable-libsoxr --enabl
e-chromaprint
libavutil 56. 60.100 / 56. 60.100
libavcodec 58.111.101 / 58.111.101
libavformat 58. 62.100 / 58. 62.100
libavdevice 58. 11.102 / 58. 11.102
libavfilter 7. 88.100 / 7. 88.100
libswscale 5. 8.100 / 5. 8.100
libswresample 3. 8.100 / 3. 8.100
libpostproc 55. 8.100 / 55. 8.100


uman231
(@uman231)
Support & Programmerare Admin
Blev medlem: 4 år sedan
Inlägg: 1483
Topic starter  

Hm... Har själv inget problem med den

Och har samma versioner..

 

 

EDIT:

Spännande.. På olika servrar hos svtplay så funkar det olika... Vi ligger nog i ett byte hos svt kanske..

 


uman231
(@uman231)
Support & Programmerare Admin
Blev medlem: 4 år sedan
Inlägg: 1483
Topic starter  

Ett mindre problem med svtplay har uppdagats igen..

Jag tror jag hittade lösningen snabbt...

Skickar inte ut någon officiell fix för detta så för er som upplever mux problem testa microfixen nedan..


Martin24
(@martin24)
Trovärdig Medlem VIP
Blev medlem: 3 år sedan
Inlägg: 294
 

@uman231 Inget ffmpeg fel nu efter inlagd microfix! 😀


Sida 1 / 2
Share:
Creeper