Forum

Subs & 1080p via vi...
 

[Löst] Subs & 1080p via viafree.exe & umans_webtv_downloader.exe ?  

  RSS

MaistroX
(@maistrox)
Estimable Member VIP
Blev medlem: 1 år sedan
Inlägg: 101
april 30, 2018 09:49  

1. viafree.exe (v.2.0.0.0) / umans_webtv_downloader.exe (v.2.0.0.1)
2. Windows 10 PRO
3. https://www.viafree.se/program/reality/are-you-the-one-sverige/sasong-1/avsnitt-28

Avsnittet har subs på webben!"

EX med viafree.exe (v.2.0.0.0):
"Enter url:
https://www.viafree.se/program/reality/are-you-the-one-sverige/sasong-1/avsnitt-28
Name:
28
Enter s for subtitle only, v for video only, a for video and sub
a

Ingen subtitle hittad"

Subtitle laddas ned OM man kör "umans_webtv_downloader.exe" (v.2.0.0.1).

Frågeställning gällande viafree.exe (v.2.0.0.0):
1. Varför laddas inte subs ner med viafree.exe (v.2.0.0.0)?
2. Varför laddas inte högsta upplösning (1080p) ner istället för 720p?

 

Ex med umans_webtv_downloader.exe (v.2.0.0.1)

"INFO: Outfile: F:\svtplay-dl/auto.e28.srt
INFO: Selected to download hls, bitrate: 2497

Crypto har laddats

INFO: Outfile: F:\svtplay-dl/auto.e28.ts
[200/200][========================================================================================================================================================================================================] ETA: 0:00:00
WARNING: Cant find ffmpeg/avconv. File may be unplayable.
ffmpeg version 3.4.1 Copyright (c) 2000-2017 the FFmpeg developers
  built with gcc 7.2.0 (GCC)
  configuration: --enable-gpl --enable-version3 --enable-sdl2 --enable-bzlib --enable-fontconfig --enable-gnutls --enable-iconv --enable-libass --enable-libbluray --enable-libfreetype --enable-libmp3lame --enable-libopenjpeg --enable-libopus --enable-libshine --enable-libsnappy --enable-libsoxr --enable-libtheora --enable-libtwolame --enable-libvpx --enable-libwavpack --enable-libwebp --enable-libx264 --enable-libx265 --enable-libxml2 --enable-libzimg --enable-lzma --enable-zlib --enable-gmp --enable-libvidstab --enable-libvorbis --enable-cuda --enable-cuvid --enable-d3d11va --enable-nvenc --enable-dxva2 --enable-avisynth --enable-libmfx
  libavutil      55. 78.100 / 55. 78.100
  libavcodec     57.107.100 / 57.107.100
  libavformat    57. 83.100 / 57. 83.100
  libavdevice    57. 10.100 / 57. 10.100
  libavfilter     6.107.100 /  6.107.100
  libswscale      4.  8.100 /  4.  8.100
  libswresample   2.  9.100 /  2.  9.100
  libpostproc    54.  7.100 / 54.  7.100
[NULL @ 009dcf40] non-existing SPS 0 referenced in buffering period
[NULL @ 009dcf40] SPS unavailable in decode_picture_timing
Input #0, mpegts, from 'F:\svtplay-dl/auto.e28.ts':
  Duration: 00:33:19.68, start: 11.210778, bitrate: 2593 kb/s
    Stream #0:0[0x100]: Video: h264 (Main), yuv420p(progressive), 1280x720 [SAR 1:1 DAR 16:9], 25 fps, 25 tbr, 90k tbn, 50 tbc
    Stream #0:1[0x101]: Audio: aac (LC), 48000 Hz, stereo, fltp, 90 kb/s
Output #0, mp4, to 'F:\svtplay-dl/auto.e28.mp4':
  Metadata:
    encoder         : Lavf57.83.100
    Stream #0:0: Video: h264 (Main) (avc1 / 0x31637661), yuv420p(progressive), 1280x720 [SAR 1:1 DAR 16:9], q=2-31, 25 fps, 25 tbr, 90k tbn, 90k tbc
    Stream #0:1: Audio: aac (LC) (mp4a / 0x6134706D), 48000 Hz, stereo, fltp, 90 kb/s
Stream mapping:
  Stream #0:0 -> #0:0 (copy)
  Stream #0:1 -> #0:1 (copy)
Press [q] to stop, [?] for help
frame=49991 fps=16239 q=-1.0 Lsize=  611230kB time=00:33:19.61 bitrate=2504.1kbits/s speed= 650x
video:586972kB audio:22792kB subtitle:0kB other streams:0kB global headers:0kB muxing overhead: 0.240276%

Done downloading and converting"

Subs och ljud laddas ned MEN fel noteras om konvertering "WARNING: Cant find ffmpeg/avconv. File may be unplayable."

Frågeställning gällande umans_webtv_downloader.exe (v.2.0.0.1):
1. Varför laddas inte högsta upplösning (1080p) ner istället för 720p?


Citera
uman231
(@uman231)
Support & Programmerare Admin
Blev medlem: 2 år sedan
Inlägg: 799
april 30, 2018 10:39  

Svar på dina tre frågor:

  1. Viafree.exe hittar helt enkelt inte texten (Jag måste kolla på det under veckan.
  2. Upplösningen 1280x720 syns va den högsta och jag kan ej ändra viafree's val av upplösning
 

RESOLUTION=320x180 , RESOLUTION=512x288, RESOLUTION=640x360, RESOLUTION=960x540, RESOLUTION=1280x720

 

Och varför fel noteras är för att du ej har c:\uwtd\ffmpeg\bin; i dina miljö variabler. Dock bör det har funkat ändå va? Du kan se videon?


SvaraCitera
MaistroX
(@maistrox)
Estimable Member VIP
Blev medlem: 1 år sedan
Inlägg: 101
april 30, 2018 11:58  

Absoult kan se videon. 🙂

Saknar dock subsen som sagt via Viafree.exe, annars rullar det.

Var gäller upplösningen så går det "tydligen" att få ned på något sätt, dessa lyckas -> "Are.You.The.One.Sverige.S01E27.SWEDiSH.1080p.WEB.H264-EXECUTION" som exempel, vet du varför detta fungerar för "dem" ? 🙂


SvaraCitera
S.Y-Sophie
(@s-y-sophie)
Arkivist Admin
Blev medlem: 1 år sedan
Inlägg: 723
april 30, 2018 12:05  
Postad av: MaistroX

Absoult kan se videon. 🙂

Saknar dock subsen som sagt via Viafree.exe, annars rullar det.

Var gäller upplösningen så går det "tydligen" att få ned på något sätt, dessa lyckas -> "Are.You.The.One.Sverige.S01E27.SWEDiSH.1080p.WEB.H264-EXECUTION" som exempel, vet du varför detta fungerar för "dem" ? 🙂

Annan source? Kanske Viaplay?

Arkivist - Distributed Preservation of Service Attack - Zero-Day Attack


SvaraCitera
uman231
(@uman231)
Support & Programmerare Admin
Blev medlem: 2 år sedan
Inlägg: 799
april 30, 2018 12:08  
Postad av: MaistroX

Absoult kan se videon. 🙂

Saknar dock subsen som sagt via Viafree.exe, annars rullar det.

Var gäller upplösningen så går det "tydligen" att få ned på något sätt, dessa lyckas -> "Are.You.The.One.Sverige.S01E27.SWEDiSH.1080p.WEB.H264-EXECUTION" som exempel, vet du varför detta fungerar för "dem" ? 🙂

Anger dom viafree som källa? Min bästa gissning utan att forska är hdmi ripp från viaplay? 


SvaraCitera
S.Y-Sophie
(@s-y-sophie)
Arkivist Admin
Blev medlem: 1 år sedan
Inlägg: 723
maj 3, 2018 09:26  
Postad av: uman231
Postad av: S.Y-Sophie

Ser ut att vara CBR i just den där releasen och liknande av den här "gruppen", vidare så verkar det vara en ganska stor skillnad mellan de olika avsnitten och releaserna från EXECUTION. Varierar från 4900-8000 i bitrate, känns fruktansvärt oseriöst att man släpper saker med så varierande kvalité. Känns inte som man har koll på standardiserade release regler för scenen.

Tyvärr syns detta vara en vardag bland dagens grupper

Frågeställningen för TS har blivit besvarade och tråden bör markeras som besvarad.

Arkivist - Distributed Preservation of Service Attack - Zero-Day Attack


SvaraCitera
Share: